<?xml version="1.0" standalone="no"?>
<!DOCTYPE svg PUBLIC "-//W3C//DTD SVG 1.1//EN" "http://www.w3.org/Graphics/SVG/1.1/DTD/svg11.dtd">
<svg xmlns="http://www.w3.org/2000/svg">
<defs >
<font id="NewsCycle" horiz-adv-x="792" ><font-face
    font-family="News Cycle"
    units-per-em="2048"
    panose-1="2 0 5 3 0 0 0 0 0 0"
    ascent="2574"
    descent="-794"
    alphabetic="0" />
<glyph unicode=" " glyph-name="space" horiz-adv-x="512" />
<glyph unicode="!" glyph-name="exclam" horiz-adv-x="334" d="M92 0V150H242V0H92ZM92 1446H242L219 300H115L92 1446Z" />
<glyph unicode="&quot;" glyph-name="quotedbl" horiz-adv-x="577" d="M335 1046L422 1296H357V1446H507V1296Q480 1239 431 1144T379 1046H335ZM70 1046L157 1296H92V1446H242V1296Q215 1239 166 1144T114 1046H70Z" />
<glyph unicode="#" glyph-name="numbersign" horiz-adv-x="1328" d="M147 488V612H384V931H147V1055H384V1517H516V1055H798V1517H930V1055H1176V931H930V612H1176V488H930V0H798V488H516V0H384V488H147ZM516 612H798V931H516V612Z" />
<glyph unicode="$" glyph-name="dollar" horiz-adv-x="1201" d="M157 1150Q157 1226 198 1304T320 1442T506 1517V1564H654V1519Q865 1496 962 1326Q970 1313 979 1296T990 1275L870 1211Q854 1262 818 1302Q751 1375 654 1393V838L734 812Q875 763 964 676Q1071
570 1071 385Q1071 292 1031 217T946 96T825 21T654 -10V-213H506V3Q334 38 218 161Q191 189 178 207L165 225L283 303Q284 303 290 290T312 255T350 211Q405 156 506 130V740Q306 818 228 918Q157 1009 157 1150ZM413 1372T359 1307T305 1161T320 1036T368 962Q416
921 506 887V1391Q413 1372 359 1307ZM654 114Q788 116 855 191T923 376T880 551T727 661L654 689V114Z" />
<glyph unicode="%" glyph-name="percent" horiz-adv-x="1075" d="M81 1136T81 1242T155 1422T336 1497T516 1423T591 1242T517 1062T336 987T156 1061ZM177 1307T177 1242T223 1131T335 1084T446 1130T493 1242T447 1353T335 1400T224 1354ZM512 161T512 267T586
447T767 522T947 448T1022 267T948 87T767 12T587 86ZM608 332T608 267T654 156T766 109T877 155T924 267T878 378T766 425T655 379ZM67 66L904 1515L1018 1449L182 0L67 66Z" />
<glyph unicode="&amp;" glyph-name="ampersand" horiz-adv-x="1407" d="M234 715Q300 781 421 870Q320 1072 320 1209T407 1441T625 1536T837 1445T919 1220Q919 1071 790 966Q700 893 588 832Q725 604 950 362Q1029 471 1051 550T1073 712H1205Q1205 571 1159
466T1045 263Q1146 166 1215 151Q1248 144 1297 144V0H1215Q1166 0 1113 29T960 159Q793 -11 551 -11Q367 -11 239 111T110 411T234 715ZM242 416Q242 289 334 201T555 113Q719 113 864 260Q624 524 481 761L404 702Q320 636 295 592Q242 503 242 416ZM552 1422T502
1359T452 1197T528 942Q670 1022 707 1051T760 1102Q800 1159 800 1232T752 1363T628 1422Z" />
<glyph unicode="&apos;" glyph-name="quotesingle" horiz-adv-x="334" d="M70 1046L157 1296H92V1446H242V1296Q215 1239 166 1144T114 1046H70Z" />
<glyph unicode="(" glyph-name="parenleft" horiz-adv-x="546" d="M92 697Q92 803 110 915T157 1118T221 1295T290 1444Q361 1573 401 1628L419 1653L535 1575Q491 1512 435 1405T341 1200T272 962T240 692T270 421T342 172Q431 -54 500 -162L530 -210L414 -288Q316
-148 219 96Q92 415 92 697Z" />
<glyph unicode=")" glyph-name="parenright" horiz-adv-x="546" d="M92 1575L208 1653Q311 1521 406 1296Q535 993 535 693Q535 553 502 400T422 130Q324 -111 246 -236L213 -288L97 -210Q137 -150 192 -39T286 174T355 418T387 692T356 962T286 1199T198 1394Q136
1512 92 1575Z" />
<glyph unicode="*" glyph-name="asterisk" horiz-adv-x="688" d="M63 721L92 809L298 742V958H390V742L595 809L624 721L419 654L546 479L471 424L344 599L217 424L142 479L269 654L63 721Z" />
<glyph unicode="+" glyph-name="plus" horiz-adv-x="909" d="M75 674V806H389V1120H521V806H834V674H521V360H389V674H75Z" />
<glyph unicode="," glyph-name="comma" horiz-adv-x="334" d="M70 -250L157 0H92V150H242V0Q215 -57 166 -152T114 -250H70Z" />
<glyph unicode="-" glyph-name="hyphen" horiz-adv-x="512" d="M0 523V635H512V523H0Z" />
<glyph unicode="." glyph-name="period" horiz-adv-x="334" d="M92 0V150H242V0H92Z" />
<glyph unicode="/" glyph-name="slash" horiz-adv-x="1003" d="M70 -12L814 1579L922 1528L179 -63L70 -12Z" />
<glyph unicode="0" glyph-name="zero" horiz-adv-x="1135" d="M109 424T95 526T80 741T94 960T144 1170T234 1351T377 1474T576 1522T770 1475T906 1352T994 1172Q1055 985 1055 739Q1055 182 772 34Q687 -11 578 -11T381 34T238 151T146 324ZM228 739Q228 388
334 236Q418 113 579 113Q756 113 830 249Q877 335 889 432Q907 577 907 703T902 904T885 1057T848 1194T788 1300Q716 1398 579 1398Q228 1398 228 739Z" />
<glyph unicode="1" glyph-name="one" horiz-adv-x="887" d="M106 1400L433 1515H539V142H759V0H147V142H391V1352L154 1283L106 1400Z" />
<glyph unicode="2" glyph-name="two" horiz-adv-x="1180" d="M90 0Q90 135 103 173T132 251T171 323T230 400T313 488Q428 595 508 654L692 788Q764 839 791 868T841 925T874 980Q902 1046 902 1116Q902 1245 829 1324T606 1403Q419 1403 328 1252Q281 1172 281
1088H133Q133 1213 202 1315T384 1472T617 1527T836 1473T992 1324T1050 1116Q1050 1003 1000 922Q945 832 890 784T804 711L721 648Q252 299 252 142H1029V0H90Z" />
<glyph unicode="3" glyph-name="three" horiz-adv-x="1171" d="M70 237L171 324Q221 249 334 178Q440 113 566 113T793 192T893 412T807 641T579 729H366V854H579Q710 854 777 935T844 1139T762 1332T551 1403Q391 1403 252 1278Q224 1254 207 1233L111 1326Q184
1410 299 1468T545 1527T775 1476T932 1338T992 1149Q992 990 893 873Q849 821 804 792Q927 718 984 626Q1041 535 1041 417Q1041 209 907 99T551 -11Q265 -11 70 237Z" />
<glyph unicode="4" glyph-name="four" horiz-adv-x="1273" d="M128 390V510L784 1515H962V514H1193V390H962V0H814V390H128ZM279 514H814V1340L279 514Z" />
<glyph unicode="5" glyph-name="five" horiz-adv-x="1048" d="M87 276L185 351Q203 295 262 233Q376 113 501 113Q563 113 619 142T710 203T772 277Q832 373 832 532Q832 774 681 858Q608 899 520 899T355 835T271 722H135V1515H897V1391H283V931Q344 989 442
1013Q484 1023 527 1023Q724 1023 852 887T980 522T848 141T506 -11Q318 -11 177 136Q105 210 87 276Z" />
<glyph unicode="6" glyph-name="six" horiz-adv-x="1163" d="M1047 478Q1047 336 974 211Q893 74 752 19Q676 -11 586 -11Q362 -11 234 170T105 678Q105 1076 263 1295T699 1514Q769 1514 851 1482T963 1413L905 1306Q787 1390 680 1390Q497 1390 375 1221T240
744Q241 745 252 762T272 790T299 821T336 855T381 887T438 915Q508 940 587 940Q790 940 918 814T1047 478ZM899 635T814 725T587 816Q432 816 339 701Q284 633 257 515Q279 209 477 133Q529 113 579 113T671 125T754 165T828 233Q899 323 899 479Z" />
<glyph unicode="7" glyph-name="seven" horiz-adv-x="982" d="M84 1376V1515H957V1374L364 0H200L807 1376H84Z" />
<glyph unicode="8" glyph-name="eight" horiz-adv-x="1204" d="M102 400Q102 578 266 707Q346 770 438 805Q317 847 240 935T163 1139T225 1344T389 1478T610 1525Q791 1525 919 1418T1047 1154Q1047 982 856 856Q805 823 747 797L815 766Q997 682 1058 570Q1102
492 1102 401T1062 232T954 102Q810 -11 622 -11Q488 -11 371 37T178 180T102 400ZM453 708T352 612T250 413T304 242Q408 113 619 113Q702 113 767 144T870 207Q954 281 954 403Q954 521 865 598Q790 662 666 713L590 744Q453 708 352 612ZM428 949Q482 912 533
888T588 862Q742 925 794 960Q899 1031 899 1147T810 1332T603 1401T398 1328T311 1142T428 949Z" />
<glyph unicode="9" glyph-name="nine" horiz-adv-x="1163" d="M105 1025Q105 1167 178 1292Q259 1429 400 1484Q476 1514 566 1514Q790 1514 918 1333T1047 825Q1047 427 889 208T453 -11Q383 -11 301 21T189 90L247 197Q365 113 472 113Q655 113 777 282T912
759Q911 758 900 741T880 713T853 682T816 648T771 616T714 588Q644 563 565 563Q362 563 234 689T105 1025ZM253 868T338 778T565 687Q720 687 813 802Q868 870 895 988Q873 1294 675 1370Q623 1390 573 1390T481 1378T398 1338T324 1270Q253 1180 253 1024Z"
/>
<glyph unicode=":" glyph-name="colon" horiz-adv-x="334" d="M92 0V150H242V0H92ZM92 905V1055H242V905H92Z" />
<glyph unicode=";" glyph-name="semicolon" horiz-adv-x="334" d="M70 -250L157 0H92V150H242V0Q215 -57 166 -152T114 -250H70ZM92 905V1055H242V905H92Z" />
<glyph unicode="&lt;" glyph-name="less" horiz-adv-x="1018" d="M64 744L894 1299L954 1209L232 744L954 279L894 189L64 744Z" />
<glyph unicode="=" glyph-name="equal" horiz-adv-x="933" d="M75 498V630H858V498H75ZM75 812V944H858V812H75Z" />
<glyph unicode="&gt;" glyph-name="greater" horiz-adv-x="1018" d="M954 744L124 189L64 279L786 744L64 1209L124 1299L954 744Z" />
<glyph unicode="?" glyph-name="question" horiz-adv-x="863" d="M93 1314Q146 1414 221 1464T411 1515T606 1460T729 1317T772 1138T736 968T648 826L544 704Q420 563 420 469V320H288V469Q288 593 411 738L513 859Q636 1004 636 1120T567 1311T428 1386T316
1371T251 1329T193 1246L93 1314ZM273 0V150H423V0H273Z" />
<glyph unicode="@" glyph-name="at" horiz-adv-x="1609" d="M134 309T107 409T80 636T125 884T245 1088T416 1227Q598 1334 800 1334T1167 1244T1430 997T1529 656Q1529 281 1346 184Q1289 154 1213 154Q1105 154 1050 227T994 407Q993 407 983 388T955 348T908
303Q844 249 757 249T616 271T533 327T484 406Q451 481 451 576T505 769T646 926T826 985T994 922L1015 998H1125V375Q1125 324 1162 295T1242 266T1318 302T1372 397Q1412 515 1412 664T1333 947T1119 1156T821 1232Q650 1232 490 1147Q287 1039 223 800Q199 709
199 599T243 382T365 191T564 55T824 3Q898 3 958 19T1043 52L1067 69L1127 -21Q1127 -25 1098 -45T999 -88T812 -111T562 -68T343 47T195 214ZM733 866T658 779T583 589T631 424T756 361Q871 361 994 504V810Q919 866 826 866Z" />
<glyph unicode="A" glyph-name="A" horiz-adv-x="1130" d="M25 0L457 1515H673L1105 0H951L821 478H312L179 0H25ZM346 602H786L565 1389L346 602Z" />
<glyph unicode="B" glyph-name="B" horiz-adv-x="1132" d="M135 0V1515H608Q791 1515 910 1411T1029 1152Q1029 897 851 826Q820 813 774 800Q938 758 1020 603Q1064 518 1064 410Q1064 223 947 112T608 0H135ZM283 124H608Q771 124 846 192Q878 221 901 277T924
410Q924 552 837 639T608 726H283V124ZM283 853H608Q748 853 820 924Q850 953 872 1012T895 1152Q895 1269 822 1330T608 1391H283V853Z" />
<glyph unicode="C" glyph-name="C" horiz-adv-x="1174" d="M97 522T89 600T80 775T97 980T156 1189T258 1366T411 1486T600 1532T763 1508T877 1444T961 1358T1021 1262Q1067 1163 1078 1112L1084 1088V1087L932 1046Q916 1160 892 1212T843 1298T788 1355Q717
1408 618 1408Q228 1408 228 759Q228 481 310 305Q403 108 618 108Q794 108 892 246Q960 343 960 463L1106 440Q1102 429 1088 386T1063 316T1031 243T986 165T926 97T846 37Q745 -16 639 -16T461 8T334 73T237 173T164 299T116 444Z" />
<glyph unicode="D" glyph-name="D" horiz-adv-x="1214" d="M135 0V1515H496Q998 1515 1110 1069Q1146 925 1146 775T1125 519T1056 317T934 151Q773 0 496 0H135ZM283 124H496Q823 124 940 403Q998 543 998 745Q998 1104 860 1257Q806 1316 714 1353T496 1391H283V124Z" />
<glyph unicode="E" glyph-name="E" horiz-adv-x="1062" d="M135 0V1515H956V1391H283V858H766V734H283V133H994V0H135Z" />
<glyph unicode="F" glyph-name="F" horiz-adv-x="1024" d="M135 0V1515H956V1391H283V858H766V734H283V0H135Z" />
<glyph unicode="G" glyph-name="G" horiz-adv-x="1246" d="M117 433T99 542T80 756T94 953T136 1130T210 1288T316 1416Q444 1532 636 1532Q777 1532 901 1447Q1046 1348 1112 1099L967 1063Q966 1070 965 1082T954 1131T931 1199T892 1271T832 1340Q756 1408
640 1408T442 1354T315 1206Q228 1026 228 768Q228 460 308 308Q413 108 639 108Q920 108 964 432Q973 502 973 591H636V715H1118V0H998V192Q885 36 759 0Q703 -16 611 -16T424 30T265 152T160 330Z" />
<glyph unicode="H" glyph-name="H" horiz-adv-x="1254" d="M135 0V1515H283V858H971V1515H1119V0H971V734H283V0H135Z" />
<glyph unicode="I" glyph-name="I" horiz-adv-x="418" d="M135 0V1515H283V0H135Z" />
<glyph unicode="J" glyph-name="J" horiz-adv-x="896" d="M25 244L128 297Q152 233 216 174Q243 149 289 129T386 108Q508 108 560 191T613 429V1515H761V429Q761 103 544 12Q475 -16 391 -16T241 10T138 70T73 147Q33 208 25 244Z" />
<glyph unicode="K" glyph-name="K" horiz-adv-x="1140" d="M135 0V1515H284V691L901 1515H1060L626 946L1115 0H949L532 822L284 495V0H135Z" />
<glyph unicode="L" glyph-name="L" horiz-adv-x="980" d="M135 0V1515H283V142H955V0H135Z" />
<glyph unicode="M" glyph-name="M" horiz-adv-x="1457" d="M128 0V1515H396L720 352H730L1054 1515H1322V0H1174V1374H1164L782 0H668L286 1374H276V0H128Z" />
<glyph unicode="N" glyph-name="N" horiz-adv-x="1251" d="M128 0V1515H364L975 361V1515H1123V0H996L276 1368V0H128Z" />
<glyph unicode="O" glyph-name="O" horiz-adv-x="1263" d="M122 421T101 529T80 753T99 977T161 1188T267 1365T427 1486T638 1532T846 1486T1000 1363T1104 1184Q1183 992 1183 752Q1183 313 956 100Q833 -16 641 -16Q530 -16 436 28T278 147T168 321ZM254 1045T241
952T228 739T251 508T322 304T451 161T631 108T800 147T914 250T985 400Q1035 554 1035 752Q1035 1081 914 1262Q871 1327 801 1367T641 1408T480 1372T362 1276T285 1130Z" />
<glyph unicode="P" glyph-name="P" horiz-adv-x="1136" d="M135 0V1515H664Q899 1515 1010 1329Q1068 1231 1068 1134T1046 964T979 829T852 729T664 692H283V0H135ZM283 816H563Q725 816 822 887T920 1104T822 1320T563 1391H283V816Z" />
<glyph unicode="Q" glyph-name="Q" horiz-adv-x="1263" d="M145 365T113 492T80 743T99 977T161 1188T267 1365T427 1486T638 1532T846 1486T1000 1363T1104 1184Q1183 992 1183 752Q1183 485 1076 270Q1023 163 934 89T730 -9Q730 -101 762 -126Q789 -147 855
-147H1119V-271H990Q776 -271 728 -258T655 -230T618 -198T596 -152Q582 -109 582 -12Q462 5 364 78T206 258ZM254 1045T241 952T228 739T251 508T322 304T451 161T631 108T800 147T914 250T985 400Q1035 554 1035 752Q1035 1081 914 1262Q871 1327 801 1367T641
1408T480 1372T362 1276T285 1130Z" />
<glyph unicode="R" glyph-name="R" horiz-adv-x="1093" d="M135 0V1515H645Q884 1515 1003 1329Q1068 1228 1068 1117Q1068 983 1004 872Q934 750 776 716L1062 0H900L624 692H283V0H135ZM283 816H659Q764 816 838 882Q920 955 920 1110Q920 1316 698 1374Q632
1391 554 1391H283V816Z" />
<glyph unicode="S" glyph-name="S" horiz-adv-x="1033" d="M40 368L177 416Q178 416 181 399T194 355T220 295T265 229T334 169Q420 108 561 108T771 185T840 374T797 551T644 661Q612 674 560 692L465 725Q218 807 133 935Q74 1024 74 1143Q74 1284 186 1406Q239
1462 321 1497T493 1532T653 1508T765 1447T842 1364T891 1280L920 1206Q933 1171 936 1165L806 1115Q804 1120 797 1146T784 1190T765 1237T737 1287T699 1332T648 1372Q582 1408 499 1408Q376 1408 299 1336T222 1143Q222 1012 290 959Q327 930 352 917T412 892T463
873T526 852L610 826Q842 755 929 615Q988 520 988 385Q988 287 926 180Q849 44 692 0Q633 -16 555 -16T400 5T273 60T180 135T113 217Q67 292 48 347L40 368Z" />
<glyph unicode="T" glyph-name="T" horiz-adv-x="1062" d="M25 1391V1515H1037V1391H605V0H457V1391H25Z" />
<glyph unicode="U" glyph-name="U" horiz-adv-x="1213" d="M135 455V1515H283V455Q283 319 349 226Q432 108 609 108Q873 108 922 346Q934 401 934 455V1515H1085V455Q1085 291 996 162Q876 -16 609 -16Q290 -16 180 238Q135 344 135 455Z" />
<glyph unicode="V" glyph-name="V" horiz-adv-x="1104" d="M25 1515H179L552 259L925 1515H1079L629 0H475L25 1515Z" />
<glyph unicode="W" glyph-name="W" horiz-adv-x="1614" d="M25 1515H179L438 317H448L722 1515H892L1166 317H1176L1435 1515H1589L1238 0H1086L812 1198H802L528 0H376L25 1515Z" />
<glyph unicode="X" glyph-name="X" horiz-adv-x="1083" d="M25 0L462 773L43 1515H197L556 881L904 1515H1058L630 750L1055 0H899L540 636L181 0H25Z" />
<glyph unicode="Y" glyph-name="Y" horiz-adv-x="1122" d="M25 1515H179L561 802L943 1515H1097L635 660V0H487V660L25 1515Z" />
<glyph unicode="Z" glyph-name="Z" horiz-adv-x="1142" d="M68 0V107L893 1387H122V1515H1074V1392L280 142H1068V0H68Z" />
<glyph unicode="[" glyph-name="bracketleft" horiz-adv-x="607" d="M100 -285V1638H537V1546H248V-193H537V-285H100Z" />
<glyph unicode="\" glyph-name="backslash" horiz-adv-x="1003" d="M81 1528L189 1579L933 -12L824 -63L81 1528Z" />
<glyph unicode="]" glyph-name="bracketright" horiz-adv-x="607" d="M100 -193H389V1546H100V1638H537V-285H100V-193Z" />
<glyph unicode="^" glyph-name="asciicircum" horiz-adv-x="624" d="M90 1197L312 1419L534 1197L468 1133L312 1289L155 1132L90 1197Z" />
<glyph unicode="_" glyph-name="underscore" horiz-adv-x="1112" d="M92 0V112H1020V0H92Z" />
<glyph unicode="`" glyph-name="grave" horiz-adv-x="683" d="M179 1368L266 1455L561 1160L495 1095L179 1368Z" />
<glyph unicode="a" glyph-name="a" horiz-adv-x="928" d="M72 329T90 382T146 477T234 551T356 609Q489 656 681 694Q681 852 620 905Q566 952 463 952Q337 952 246 856Q207 817 192 786L97 849Q209 1064 478 1064Q719 1064 786 879Q813 804 813 697V148Q813 119
824 69T844 0H711Q681 15 681 168Q540 -13 370 -13Q182 -13 109 119Q72 186 72 257ZM229 372Q204 326 204 252T256 139T371 99T483 118T572 167Q645 222 681 265V582Q491 533 456 522Q280 465 229 372Z" />
<glyph unicode="b" glyph-name="b" horiz-adv-x="994" d="M252 166Q252 12 227 0H94Q120 55 120 146V1515H252V917Q271 958 351 1012T523 1066Q703 1066 811 912T919 510Q919 363 864 232Q800 82 682 22Q616 -11 547 -11T427 9T341 61Q282 115 252 166ZM252 278Q353
139 430 114Q468 101 527 101T639 132T724 220Q787 333 787 510Q787 954 489 954Q358 954 252 803V278Z" />
<glyph unicode="c" glyph-name="c" horiz-adv-x="926" d="M75 520Q75 1066 500 1066Q605 1066 677 1016Q748 966 771 926Q811 858 826 813L720 765Q718 785 699 824T657 888T594 933T500 954Q207 954 207 529Q207 323 284 212T500 101Q595 101 658 174Q713 237
732 286L741 308L845 258Q810 161 730 82Q694 47 632 18T500 -11Q282 -11 179 128T75 520Z" />
<glyph unicode="d" glyph-name="d" horiz-adv-x="984" d="M742 166Q640 -11 458 -11Q367 -11 292 34T171 155Q75 312 75 510Q75 657 122 783T262 987T458 1066T643 1012T742 917V1515H874V146Q874 116 882 68T900 0H767Q742 12 742 166ZM207 510Q207 333 270 220Q336
101 479 101Q574 101 635 155Q684 198 742 278V803Q636 954 505 954Q207 954 207 510Z" />
<glyph unicode="e" glyph-name="e" horiz-adv-x="925" d="M126 221T101 311T75 500T89 680T126 819T182 920T250 992T326 1036Q397 1066 461 1066T570 1055T666 1008T755 914Q841 778 841 513H207Q207 246 342 149Q409 101 491 101Q645 101 753 292L844 229Q805
157 742 99Q622 -11 505 -11T306 32T175 148ZM213 625H709Q709 774 640 872Q582 954 475 954Q300 954 241 792Q213 716 213 625Z" />
<glyph unicode="f" glyph-name="f" horiz-adv-x="570" d="M557 1515V1404H468Q318 1404 318 1278V1055H557V943H318V0H186V943H13V1055H186V1278Q186 1441 327 1498Q393 1524 470 1524T557 1515Z" />
<glyph unicode="g" glyph-name="g" horiz-adv-x="1005" d="M123 -353T83 -298T42 -188T57 -104T102 -50T155 -12T217 22T264 47Q182 64 140 107T98 185T111 250T152 304Q196 343 225 361T257 381Q197 432 152 514T106 695T160 881T306 1017T484 1066T622 1045T735
983Q811 1045 859 1054Q921 1067 973 1068V948H971Q800 948 800 917Q851 823 863 779T876 689Q876 528 773 417T504 305Q417 305 326 343Q318 336 290 316Q230 274 230 232Q230 186 272 169Q304 156 351 149T418 140T484 136Q596 135 750 98Q847 75 908 6T970 -159Q970
-445 491 -445Q322 -445 190 -384Q123 -353 83 -298ZM174 -169Q174 -267 280 -302Q371 -333 450 -333T556 -333T623 -329T690 -319T747 -299T796 -268Q838 -226 838 -166T798 -71T697 -20T575 1T461 10T395 16Q288 -24 256 -43Q174 -91 174 -169ZM238 806T238 689T308
495T498 417T681 496T744 688T683 877T504 954T313 880Z" />
<glyph unicode="h" glyph-name="h" horiz-adv-x="979" d="M129 0V1515H261V882Q409 1023 504 1052Q553 1066 606 1066Q721 1066 795 996T869 786V0H737V786Q737 861 684 907T568 954Q420 954 261 781V0H129Z" />
<glyph unicode="i" glyph-name="i" horiz-adv-x="417" d="M120 1188V1338H270V1188H120ZM129 0V1055H261V0H129Z" />
<glyph unicode="j" glyph-name="j" horiz-adv-x="362" d="M111 1188V1338H261V1188H111ZM-63 -225Q34 -225 77 -191T120 -29V1055H252V0Q252 -171 210 -238Q194 -263 181 -279T144 -307T103 -324T56 -333Q14 -337 -19 -337H-55L-63 -225Z" />
<glyph unicode="k" glyph-name="k" horiz-adv-x="911" d="M130 0V1515H262V533L666 1055H824L548 696L886 0H740L458 582L262 339V0H130Z" />
<glyph unicode="l" glyph-name="l" horiz-adv-x="417" d="M129 -2V1515H261V-2H129Z" />
<glyph unicode="m" glyph-name="m" horiz-adv-x="1577" d="M120 0V1055H252V881Q390 1019 495 1051Q544 1066 618 1066T760 1018T851 873Q996 1018 1100 1050Q1149 1066 1204 1066Q1319 1066 1393 996T1467 786V0H1335V786Q1335 861 1282 907T1166 954Q1019 954
860 781V0H728V786Q728 861 675 907T559 954Q411 954 252 781V0H120Z" />
<glyph unicode="n" glyph-name="n" horiz-adv-x="970" d="M120 0V1055H252V882Q340 969 419 1017T605 1066T786 996T860 786V0H728V786Q728 861 675 907T559 954Q411 954 252 781V0H120Z" />
<glyph unicode="o" glyph-name="o" horiz-adv-x="972" d="M75 776T183 921T487 1066T789 920T897 530T789 137T487 -12Q290 -12 181 142Q75 293 75 534ZM207 528Q207 211 372 126Q422 100 487 100T602 126T683 193T732 292Q765 393 765 527Q765 954 486 954T207 528Z" />
<glyph unicode="p" glyph-name="p" horiz-adv-x="1015" d="M129 -410V1055H261V891Q285 936 340 981Q444 1066 557 1066Q767 1066 877 836Q940 704 940 547Q940 271 805 108Q707 -11 544 -11Q452 -11 366 44T261 140V-410H129ZM261 254Q307 188 373 145T498 101T598
112T678 154T746 234Q808 342 808 547Q808 797 692 899Q630 954 536 954Q410 954 316 848Q292 821 261 779V254Z" />
<glyph unicode="q" glyph-name="q" horiz-adv-x="996" d="M103 307T89 385T75 543T90 695T138 836T214 954Q312 1066 458 1066Q601 1066 718 939Q742 913 754 891L771 1055H886V-410H754V140Q735 100 649 45T477 -11T323 21T210 107T134 234ZM260 844T234 755T207
555T224 363T269 234T336 154Q406 101 491 101Q647 101 754 254V779Q694 861 650 894Q574 954 480 954T323 899Z" />
<glyph unicode="r" glyph-name="r" horiz-adv-x="639" d="M120 0Q120 0 120 1055H252V771Q299 875 324 914Q422 1066 578 1066Q590 1066 614 1064V952Q546 943 501 927T413 874Q338 812 252 627V0H120Z" />
<glyph unicode="s" glyph-name="s" horiz-adv-x="878" d="M80 200L179 264Q232 182 297 142T456 101Q554 101 615 154Q666 198 666 262T644 364T582 426Q515 464 443 481T329 513T243 553T167 609Q94 680 94 796T187 989T426 1066Q597 1066 715 943Q737 920 752
898L661 830Q654 837 633 859T606 888L580 909Q562 925 550 930L516 942Q484 954 408 954T277 911T222 815T240 732T294 677Q352 641 428 618T528 587T594 563T659 531T713 492T759 440Q798 372 798 292Q798 159 697 74T463 -11T240 39T80 200Z" />
<glyph unicode="t" glyph-name="t" horiz-adv-x="606" d="M36 943V1055H214V1440H346V1055H588V943H346V274Q346 173 377 136T479 99Q508 99 548 104T588 110V11Q522 -13 460 -13T374 -10T318 9T264 54Q214 124 214 274V943H36Z" />
<glyph unicode="u" glyph-name="u" horiz-adv-x="979" d="M129 269V1055H261V269Q261 194 314 148T430 101Q578 101 737 274V1055H869V0H737V174Q595 35 494 4Q445 -11 392 -11Q277 -11 203 59T129 269Z" />
<glyph unicode="v" glyph-name="v" horiz-adv-x="901" d="M25 1055H163L441 146H460L738 1055H876L552 0H349L25 1055Z" />
<glyph unicode="w" glyph-name="w" horiz-adv-x="1316" d="M25 1055H148L380 260L588 1055H708L934 255L1156 1055H1291L990 0H872L648 809L447 0H312L25 1055Z" />
<glyph unicode="x" glyph-name="x" horiz-adv-x="870" d="M25 0L355 544L35 1055H183L428 665L684 1055H832L500 550L845 0H697L430 425L173 0H25Z" />
<glyph unicode="y" glyph-name="y" horiz-adv-x="905" d="M213 -393T150 -393T27 -385L37 -264Q73 -281 133 -281T232 -266T296 -226T341 -172T374 -112Q395 -56 404 -3L25 1055H167L466 196L746 1055H880L512 -64Q455 -235 398 -296Q335 -362 274 -377Z" />
<glyph unicode="z" glyph-name="z" horiz-adv-x="779" d="M25 0V85L585 943H78V1055H754V981L186 120H754V0H25Z" />
<glyph unicode="{" glyph-name="braceleft" horiz-adv-x="772" d="M80 614V736Q273 736 273 981Q273 1017 258 1054Q213 1165 213 1266Q213 1441 304 1539T594 1638V1533Q528 1533 475 1508T390 1444Q327 1364 327 1283Q327 1262 357 1160T387 952T345 778T207
675Q303 641 345 573T387 399T357 191T327 58T343 -14T390 -94T474 -158T594 -183V-288Q395 -288 304 -190T213 84Q213 185 258 296Q273 333 273 369Q273 614 80 614Z" />
<glyph unicode="|" glyph-name="bar" horiz-adv-x="348" d="M100 -132V1563H248V-132H100Z" />
<glyph unicode="}" glyph-name="braceright" horiz-adv-x="772" d="M80 -183Q146 -183 199 -158T284 -94Q347 -14 347 67Q347 88 317 190T287 398T329 572T467 675Q371 709 329 777T287 951T317 1159T347 1292T331 1364T284 1444T200 1508T80 1533V1638Q279 1638
370 1540T461 1266Q461 1165 416 1054Q401 1017 401 981Q401 736 594 736V614Q401 614 401 369Q401 333 416 296Q461 185 461 84Q461 -91 370 -189T80 -288V-183Z" />
<glyph unicode="~" glyph-name="asciitilde" horiz-adv-x="789" d="M699 1268Q674 1196 626 1154T522 1112T426 1135T348 1180T277 1203H267Q235 1200 210 1177T173 1119L90 1159Q115 1231 160 1270Q212 1315 262 1315T347 1301T404 1270Q461 1224 512 1224H522Q554
1227 579 1250T616 1308L699 1268Z" />
<glyph unicode="&#xa0;" glyph-name="uni00A0" horiz-adv-x="512" />
<glyph unicode="&#xa1;" glyph-name="exclamdown" horiz-adv-x="334" d="M92 -168L115 978H219L242 -168H92ZM92 1128V1278H242V1128H92Z" />
<glyph unicode="&#xa2;" glyph-name="cent" horiz-adv-x="970" d="M450 -5Q110 50 110 529T450 1060V1281H582V1063Q644 1055 695 1027T776 963Q836 891 854 836L861 813L755 765Q739 861 656 918Q623 941 582 949V107Q709 140 776 308L880 258Q872 232 842 182T780
99T695 33T582 -8V-236H450V-5ZM242 529Q242 358 296 252T450 113V943Q242 890 242 529Z" />
<glyph unicode="&#xa3;" glyph-name="sterling" horiz-adv-x="1025" d="M1000 133Q939 0 612 0H145V138Q158 172 167 292T177 507V633H42V768H177V879Q177 1203 256 1338Q331 1464 459 1503Q532 1525 594 1525Q747 1525 750 1515V1403L647 1405Q546 1405 482 1377T382
1282T331 1121T317 879V768H642V633H317V507Q317 410 309 288T285 138H612Q845 138 912 204Q919 212 922 221L1000 133Z" />
<glyph unicode="&#xa4;" glyph-name="currency" horiz-adv-x="772" d="M75 498L175 598Q130 662 130 744T174 892L75 991L140 1056L238 958Q303 1006 386 1006T533 957L632 1056L697 991L597 891Q641 824 641 745T597 598L697 498L632 433L534 531Q468 483 387
483T238 531L140 433L75 498ZM230 810T230 745T274 632T384 584T495 632T539 745T495 857T386 905T275 858Z" />
<glyph unicode="&#xa5;" glyph-name="yen" horiz-adv-x="1122" d="M25 1515H179L561 802L943 1515H1097L635 660H875V568H635V394H875V302H635V0H487V302H258V394H487V568H258V660H487L25 1515Z" />
<glyph unicode="&#xa6;" glyph-name="brokenbar" horiz-adv-x="348" d="M100 -132V646H248V-132H100ZM100 778V1563H248V778H100Z" />
<glyph unicode="&#xa7;" glyph-name="section" horiz-adv-x="878" d="M80 200L179 264Q232 182 297 142T456 101Q554 101 615 154Q666 198 666 262T644 364T582 426Q515 464 443 481T329 513T243 553T167 609Q94 680 94 775T139 937Q94 1000 94 1078Q94 1207 187
1283T426 1360Q597 1360 715 1237Q737 1214 752 1192L661 1124Q654 1131 633 1153T606 1182L580 1203Q562 1219 550 1224L516 1236Q484 1248 408 1248T277 1205T222 1109T240 1026T294 971Q352 935 428 912T528 881T594 857T659 825T713 786T759 734Q798 666 798
587T758 440Q798 377 798 292Q798 159 697 74T463 -11T240 39T80 200ZM232 854Q222 829 222 796T240 732T294 677Q352 641 476 604T662 529Q666 553 666 586T644 658T582 720Q515 758 411 783T232 854Z" />
<glyph unicode="&#xa8;" glyph-name="dieresis" horiz-adv-x="653" d="M92 1203V1353H242V1203H92ZM411 1203V1353H561V1203H411Z" />
<glyph unicode="&#xa9;" glyph-name="copyright" horiz-adv-x="1090" d="M75 550T75 744T213 1076T545 1214T877 1076T1015 744T877 412T545 274T213 412ZM140 911T140 744T259 459T545 340T830 458T949 744T831 1029T545 1148T259 1030ZM383 542T364 605T344
731T356 844T392 936Q445 1028 547 1028Q643 1028 700 919Q713 894 723 859L657 846Q640 912 622 928Q588 957 551 957T488 945T449 913T427 862Q415 817 415 754T421 654T441 586Q469 523 547 523Q646 523 665 634L731 626Q729 598 699 549Q642 453 547 453Q478
453 431 497Z" />
<glyph unicode="&#xaa;" glyph-name="ordfeminine" horiz-adv-x="528" d="M359 1126Q299 1049 230 1049T130 1089T100 1176Q100 1256 162 1294T359 1359Q359 1412 341 1435T278 1459T208 1444Q169 1424 155 1395L111 1425Q159 1516 273 1516Q425 1516 425 1360V1127Q425
1081 438 1055H372Q359 1062 359 1126ZM235 1106Q271 1106 305 1129T359 1176V1302L318 1292Q291 1286 278 1282L244 1271Q166 1246 166 1176T235 1106Z" />
<glyph unicode="&#xab;" glyph-name="guillemotleft" horiz-adv-x="755" d="M100 1276L322 1498L386 1432L230 1276L387 1119L322 1054L100 1276ZM368 1276L590 1498L654 1432L498 1276L655 1119L590 1054L368 1276Z" />
<glyph unicode="&#xac;" glyph-name="logicalnot" horiz-adv-x="1112" d="M92 694V806H1020V366H908V694H92Z" />
<glyph unicode="&#xad;" glyph-name="uni00AD" horiz-adv-x="1112" d="M92 694V786H1020V694H92Z" />
<glyph unicode="&#xae;" glyph-name="registered" horiz-adv-x="1092" d="M75 744Q75 935 213 1070T546 1206Q743 1206 879 1072Q942 1010 979 925T1017 728T954 511T782 343T546 282T311 344T139 512T75 744ZM143 907T143 744T262 465T546 349T830 464T949 744T831
1024T546 1139T261 1023ZM385 500V992H597Q662 992 698 948T734 855T712 765T640 713L733 500H657L567 702H456V500H385ZM456 765H578Q664 765 664 854Q664 898 633 913T545 929H456V765Z" />
<glyph unicode="&#xaf;" glyph-name="overscore" horiz-adv-x="707" d="M90 1231V1323H617V1231H90Z" />
<glyph unicode="&#xb0;" glyph-name="degree" horiz-adv-x="660" d="M75 1136T75 1242T149 1422T330 1497T510 1423T585 1242T511 1062T330 987T150 1061ZM171 1307T171 1242T217 1131T329 1084T440 1130T487 1242T441 1353T329 1400T218 1354Z" />
<glyph unicode="&#xb1;" glyph-name="plusminus" horiz-adv-x="909" d="M75 251V383H834V251H75ZM75 819V951H389V1265H521V951H834V819H521V505H389V819H75Z" />
<glyph unicode="&#xb2;" glyph-name="two.superior" horiz-adv-x="510" d="M100 1055Q100 1137 160 1197Q191 1227 220 1248L268 1283Q319 1319 327 1334Q344 1364 344 1391Q344 1460 266 1460Q227 1460 203 1436T179 1382H113Q113 1440 157 1477T266 1514T370
1479T410 1391Q410 1337 370 1296Q345 1272 319 1252Q291 1230 249 1200Q171 1145 171 1113H404V1055H100Z" />
<glyph unicode="&#xb3;" glyph-name="three.superior" horiz-adv-x="513" d="M315 1520T357 1483T399 1385T342 1288Q413 1246 413 1178T369 1075T244 1040T100 1121L140 1157Q150 1142 183 1119T256 1096T322 1115T347 1173T326 1236T264 1260H189V1315H264Q332
1315 332 1395Q332 1422 312 1443T257 1464T193 1445T150 1408L112 1448Q130 1469 142 1480T187 1506T267 1520Z" />
<glyph unicode="&#xb4;" glyph-name="acute" horiz-adv-x="683" d="M122 1160L417 1455L504 1368L188 1095L122 1160Z" />
<glyph unicode="&#xb5;" glyph-name="micro" horiz-adv-x="979" d="M129 -411V1055H261V269Q261 194 314 148T430 101Q578 101 737 274V1055H869V0H737V174Q595 35 494 4Q445 -11 384 -11T265 15V-411H129Z" />
<glyph unicode="&#xb6;" glyph-name="paragraph" horiz-adv-x="1115" d="M110 891T89 963T68 1102T81 1222T126 1329T203 1423Q304 1515 472 1515H980V0H832V692H614V0H466V692Q359 692 279 729T155 828ZM350 1362T283 1294T216 1105T282 915T466 825V1382Q350
1362 283 1294ZM614 816H832V1391H614V816Z" />
<glyph unicode="&#xb7;" glyph-name="middot" horiz-adv-x="334" d="M92 786V936H242V786H92Z" />
<glyph unicode="&#xb8;" glyph-name="cedilla" horiz-adv-x="350" d="M58 -313L22 -312V-218Q111 -218 140 -202T170 -171Q170 -96 92 0H190Q263 -102 263 -198Q263 -313 58 -313Z" />
<glyph unicode="&#xb9;" glyph-name="one.superior" horiz-adv-x="418" d="M100 1481L198 1516H252V1113H318V1055H112V1113H185V1452L114 1431L100 1481Z" />
<glyph unicode="&#xba;" glyph-name="ordmasculine" horiz-adv-x="549" d="M193 1057T147 1121T100 1288T146 1453T275 1515T403 1453T449 1288T403 1121T275 1057ZM170 1286Q170 1120 274 1120T379 1286Q379 1369 356 1410T275 1452T194 1411T170 1286Z" />
<glyph unicode="&#xbb;" glyph-name="guillemotright" horiz-adv-x="755" d="M100 1119L257 1276L101 1432L165 1498L387 1276L165 1054L100 1119ZM368 1119L525 1276L369 1432L433 1498L655 1276L433 1054L368 1119Z" />
<glyph unicode="&#xbc;" glyph-name="onequarter" horiz-adv-x="1138" d="M535 184V262L863 760H973V264H1088V184H973V-7H878V184H535ZM632 264H878V643L632 264ZM57 1460L220 1518H294V835H404V755H78V835H200V1431L81 1397L57 1460ZM148 -41L892 1551H1000L257
-41H148Z" />
<glyph unicode="&#xbd;" glyph-name="onehalf" horiz-adv-x="1183" d="M57 1460L220 1518H294V835H404V755H78V835H200V1431L81 1397L57 1460ZM607 -13Q607 101 660 172Q722 253 848 346L930 406Q976 441 987 461Q1013 507 1013 550Q1013 687 875 687Q796 687
760 640T723 536H628Q628 631 706 697T879 763T1040 701T1108 550Q1108 441 996 354L900 281Q897 279 870 257L798 197Q774 176 763 162L737 130Q709 96 709 67H1097V-13H607ZM121 -38L865 1554H973L230 -38H121Z" />
<glyph unicode="&#xbe;" glyph-name="threequarters" horiz-adv-x="1213" d="M610 184V262L938 760H1048V264H1163V184H1048V-7H953V184H610ZM707 264H953V643L707 264ZM54 882L110 930Q126 906 184 869T310 831T422 869T468 971T430 1077T332 1121H205V1202H332Q388
1202 416 1241T444 1335T407 1424T309 1459T199 1429T126 1373L74 1430Q110 1472 175 1505T321 1539T470 1481T539 1340Q539 1293 520 1252Q492 1194 445 1162L475 1142Q564 1082 564 973T493 807T328 751Q153 751 54 882ZM240 -38L984 1554H1092L349 -38H240Z"
/>
<glyph unicode="&#xbf;" glyph-name="questiondown" horiz-adv-x="863" d="M218 672L320 792Q445 934 445 1028V1177H577V1028Q577 911 454 764L352 642Q229 493 229 377T291 188T425 115Q528 115 585 147T682 258L772 201Q722 108 631 54T425 0Q275 0 184 109T93
369T218 672ZM442 1347V1497H592V1347H442Z" />
<glyph unicode="&#xc0;" glyph-name="Agrave" horiz-adv-x="1130" d="M197 1880L284 1967L579 1672L513 1607L197 1880ZM25 0L457 1515H673L1105 0H951L821 478H312L179 0H25ZM346 602H786L565 1389L346 602Z" />
<glyph unicode="&#xc1;" glyph-name="Aacute" horiz-adv-x="1130" d="M551 1672L846 1967L933 1880L617 1607L551 1672ZM25 0L457 1515H673L1105 0H951L821 478H312L179 0H25ZM346 602H786L565 1389L346 602Z" />
<glyph unicode="&#xc2;" glyph-name="Acircumflex" horiz-adv-x="1130" d="M343 1719L565 1941L787 1719L721 1655L565 1811L408 1654L343 1719ZM25 0L457 1515H673L1105 0H951L821 478H312L179 0H25ZM346 602H786L565 1389L346 602Z" />
<glyph unicode="&#xc3;" glyph-name="Atilde" horiz-adv-x="1130" d="M869 1807Q844 1735 796 1693T692 1651T596 1674T518 1719T447 1742H437Q405 1739 380 1716T343 1658L260 1698Q285 1770 330 1809Q382 1854 432 1854T517 1840T574 1809Q631 1763 682 1763H692Q724
1766 749 1789T786 1847L869 1807ZM25 0L457 1515H673L1105 0H951L821 478H312L179 0H25ZM346 602H786L565 1389L346 602Z" />
<glyph unicode="&#xc4;" glyph-name="Adieresis" horiz-adv-x="1130" d="M330 1654V1804H480V1654H330ZM649 1654V1804H799V1654H649ZM25 0L457 1515H673L1105 0H951L821 478H312L179 0H25ZM346 602H786L565 1389L346 602Z" />
<glyph unicode="&#xc5;" glyph-name="Aring" horiz-adv-x="1130" d="M406 1812T406 1747T452 1636T563 1589T675 1635T722 1747T676 1858T564 1905T452 1859ZM310 1641T310 1747T384 1927T564 2002T745 1928T820 1747T745 1566Q712 1533 672 1515H673L1105 0H951L821
478H312L179 0H25L457 1515Q418 1533 384 1566Q310 1641 310 1747ZM346 602H786L565 1389L346 602Z" />
<glyph unicode="&#xc6;" glyph-name="AE" horiz-adv-x="1600" d="M25 0L457 1515H1494V1391H821V858H1304V734H821V133H1532V0H673V478H312L179 0H25ZM346 602H673V1389H565L346 602Z" />
<glyph unicode="&#xc7;" glyph-name="Ccedilla" horiz-adv-x="1174" d="M535 -319L499 -318V-224Q588 -224 617 -208T647 -177Q647 -105 575 -14Q510 -8 460 8Q388 32 334 73T237 173T164 299T116 444T89 600T80 775T97 980T156 1189T258 1366T411 1486T600 1532T763
1508T877 1444T961 1358T1021 1262Q1067 1163 1078 1112L1084 1088V1087L932 1046Q916 1160 892 1212T843 1298T788 1355Q717 1408 618 1408Q228 1408 228 759Q228 481 310 305Q403 108 618 108Q794 108 892 246Q960 343 960 463L1106 440Q1102 429 1088 386T1063
316T1031 243T986 165T926 97T846 37Q761 -7 673 -15Q740 -112 740 -204Q740 -319 535 -319Z" />
<glyph unicode="&#xc8;" glyph-name="Egrave" horiz-adv-x="1062" d="M177 1880L264 1967L559 1672L493 1607L177 1880ZM135 0V1515H956V1391H283V858H766V734H283V133H994V0H135Z" />
<glyph unicode="&#xc9;" glyph-name="Eacute" horiz-adv-x="1062" d="M532 1672L827 1967L914 1880L598 1607L532 1672ZM135 0V1515H956V1391H283V858H766V734H283V133H994V0H135Z" />
<glyph unicode="&#xca;" glyph-name="Ecircumflex" horiz-adv-x="1062" d="M324 1719L546 1941L768 1719L702 1655L546 1811L389 1654L324 1719ZM135 0V1515H956V1391H283V858H766V734H283V133H994V0H135Z" />
<glyph unicode="&#xcb;" glyph-name="Edieresis" horiz-adv-x="1062" d="M311 1654V1804H461V1654H311ZM630 1654V1804H780V1654H630ZM135 0V1515H956V1391H283V858H766V734H283V133H994V0H135Z" />
<glyph unicode="&#xcc;" glyph-name="Igrave" horiz-adv-x="418" d="M-159 1880L-72 1967L223 1672L157 1607L-159 1880ZM135 0V1515H283V0H135Z" />
<glyph unicode="&#xcd;" glyph-name="Iacute" horiz-adv-x="418" d="M195 1672L490 1967L577 1880L261 1607L195 1672ZM135 0V1515H283V0H135Z" />
<glyph unicode="&#xce;" glyph-name="Icircumflex" horiz-adv-x="418" d="M-13 1719L209 1941L431 1719L365 1655L209 1811L52 1654L-13 1719ZM135 0V1515H283V0H135Z" />
<glyph unicode="&#xcf;" glyph-name="Idieresis" horiz-adv-x="418" d="M-26 1654V1804H124V1654H-26ZM293 1654V1804H443V1654H293ZM135 0V1515H283V0H135Z" />
<glyph unicode="&#xd0;" glyph-name="Eth" horiz-adv-x="1224" d="M9 676V812H137V1515H498Q653 1515 771 1472T961 1359T1078 1186Q1156 1008 1156 745Q1156 351 938 150Q777 0 498 0H137V676H9ZM285 124H498Q754 124 884 296Q1008 461 1008 745Q1008 1179 788
1319Q675 1391 498 1391H285V812H609V676H285V124Z" />
<glyph unicode="&#xd1;" glyph-name="Ntilde" horiz-adv-x="1251" d="M930 1807Q905 1735 857 1693T753 1651T657 1674T579 1719T508 1742H498Q466 1739 441 1716T404 1658L321 1698Q346 1770 391 1809Q443 1854 493 1854T578 1840T635 1809Q692 1763 743 1763H753Q785
1766 810 1789T847 1847L930 1807ZM128 0V1515H364L975 361V1515H1123V0H996L276 1368V0H128Z" />
<glyph unicode="&#xd2;" glyph-name="Ograve" horiz-adv-x="1263" d="M273 1880L360 1967L655 1672L589 1607L273 1880ZM122 421T101 529T80 753T99 977T161 1188T267 1365T427 1486T638 1532T846 1486T1000 1363T1104 1184Q1183 992 1183 752Q1183 313 956 100Q833
-16 641 -16Q530 -16 436 28T278 147T168 321ZM254 1045T241 952T228 739T251 508T322 304T451 161T631 108T800 147T914 250T985 400Q1035 554 1035 752Q1035 1081 914 1262Q871 1327 801 1367T641 1408T480 1372T362 1276T285 1130Z" />
<glyph unicode="&#xd3;" glyph-name="Oacute" horiz-adv-x="1263" d="M627 1672L922 1967L1009 1880L693 1607L627 1672ZM122 421T101 529T80 753T99 977T161 1188T267 1365T427 1486T638 1532T846 1486T1000 1363T1104 1184Q1183 992 1183 752Q1183 313 956 100Q833
-16 641 -16Q530 -16 436 28T278 147T168 321ZM254 1045T241 952T228 739T251 508T322 304T451 161T631 108T800 147T914 250T985 400Q1035 554 1035 752Q1035 1081 914 1262Q871 1327 801 1367T641 1408T480 1372T362 1276T285 1130Z" />
<glyph unicode="&#xd4;" glyph-name="Ocircumflex" horiz-adv-x="1263" d="M419 1719L641 1941L863 1719L797 1655L641 1811L484 1654L419 1719ZM122 421T101 529T80 753T99 977T161 1188T267 1365T427 1486T638 1532T846 1486T1000 1363T1104 1184Q1183 992 1183
752Q1183 313 956 100Q833 -16 641 -16Q530 -16 436 28T278 147T168 321ZM254 1045T241 952T228 739T251 508T322 304T451 161T631 108T800 147T914 250T985 400Q1035 554 1035 752Q1035 1081 914 1262Q871 1327 801 1367T641 1408T480 1372T362 1276T285 1130Z"
/>
<glyph unicode="&#xd5;" glyph-name="Otilde" horiz-adv-x="1263" d="M945 1807Q920 1735 872 1693T768 1651T672 1674T594 1719T523 1742H513Q481 1739 456 1716T419 1658L336 1698Q361 1770 406 1809Q458 1854 508 1854T593 1840T650 1809Q707 1763 758 1763H768Q800
1766 825 1789T862 1847L945 1807ZM122 421T101 529T80 753T99 977T161 1188T267 1365T427 1486T638 1532T846 1486T1000 1363T1104 1184Q1183 992 1183 752Q1183 313 956 100Q833 -16 641 -16Q530 -16 436 28T278 147T168 321ZM254 1045T241 952T228 739T251 508T322
304T451 161T631 108T800 147T914 250T985 400Q1035 554 1035 752Q1035 1081 914 1262Q871 1327 801 1367T641 1408T480 1372T362 1276T285 1130Z" />
<glyph unicode="&#xd6;" glyph-name="Odieresis" horiz-adv-x="1263" d="M406 1654V1804H556V1654H406ZM725 1654V1804H875V1654H725ZM122 421T101 529T80 753T99 977T161 1188T267 1365T427 1486T638 1532T846 1486T1000 1363T1104 1184Q1183 992 1183 752Q1183
313 956 100Q833 -16 641 -16Q530 -16 436 28T278 147T168 321ZM254 1045T241 952T228 739T251 508T322 304T451 161T631 108T800 147T914 250T985 400Q1035 554 1035 752Q1035 1081 914 1262Q871 1327 801 1367T641 1408T480 1372T362 1276T285 1130Z" />
<glyph unicode="&#xd7;" glyph-name="multiply" horiz-adv-x="896" d="M75 460L355 740L75 1021L168 1114L448 833L727 1113L820 1020L541 740L821 460L728 367L448 647L168 367L75 460Z" />
<glyph unicode="&#xd8;" glyph-name="Oslash" horiz-adv-x="1271" d="M161 305T121 451T80 733T99 977T161 1188T267 1365T427 1486T641 1532Q815 1532 947 1420L1021 1549L1135 1483L1038 1316Q1113 1205 1152 1056T1191 771T1172 528T1110 320T1005 146T849
28T641 -16Q466 -16 333 94L257 -38L142 28L239 196Q161 305 121 451ZM313 322L881 1306Q784 1408 641 1408Q384 1408 284 1130Q228 973 228 733T313 322ZM397 204Q498 108 641 108Q730 108 801 147T916 250T990 399Q1043 552 1043 779T962 1183L397 204Z" />
<glyph unicode="&#xd9;" glyph-name="Ugrave" horiz-adv-x="1213" d="M241 1880L328 1967L623 1672L557 1607L241 1880ZM135 455V1515H283V455Q283 319 349 226Q432 108 609 108Q873 108 922 346Q934 401 934 455V1515H1085V455Q1085 291 996 162Q876 -16 609
-16Q290 -16 180 238Q135 344 135 455Z" />
<glyph unicode="&#xda;" glyph-name="Uacute" horiz-adv-x="1213" d="M594 1672L889 1967L976 1880L660 1607L594 1672ZM135 455V1515H283V455Q283 319 349 226Q432 108 609 108Q873 108 922 346Q934 401 934 455V1515H1085V455Q1085 291 996 162Q876 -16 609
-16Q290 -16 180 238Q135 344 135 455Z" />
<glyph unicode="&#xdb;" glyph-name="Ucircumflex" horiz-adv-x="1213" d="M386 1719L608 1941L830 1719L764 1655L608 1811L451 1654L386 1719ZM135 455V1515H283V455Q283 319 349 226Q432 108 609 108Q873 108 922 346Q934 401 934 455V1515H1085V455Q1085 291
996 162Q876 -16 609 -16Q290 -16 180 238Q135 344 135 455Z" />
<glyph unicode="&#xdc;" glyph-name="Udieresis" horiz-adv-x="1213" d="M374 1654V1804H524V1654H374ZM693 1654V1804H843V1654H693ZM135 455V1515H283V455Q283 319 349 226Q432 108 609 108Q873 108 922 346Q934 401 934 455V1515H1085V455Q1085 291 996 162Q876
-16 609 -16Q290 -16 180 238Q135 344 135 455Z" />
<glyph unicode="&#xdd;" glyph-name="Yacute" horiz-adv-x="1122" d="M547 1672L842 1967L929 1880L613 1607L547 1672ZM25 1515H179L561 802L943 1515H1097L635 660V0H487V660L25 1515Z" />
<glyph unicode="&#xde;" glyph-name="Thorn" horiz-adv-x="1236" d="M135 0V1515H283V1180H664Q899 1180 1010 994Q1068 896 1068 799T1046 629T979 494T852 394T664 357H283V0H135ZM283 481H563Q725 481 822 552T920 769T822 985T563 1056H283V481Z" />
<glyph unicode="&#xdf;" glyph-name="germandbls" horiz-adv-x="1146" d="M135 0V879Q135 1185 172 1286Q219 1415 293 1461Q397 1525 552 1525T801 1440T895 1244T841 1058T707 953Q690 946 660 935T617 919T585 905T558 888T540 868Q525 847 525 805T543 732T598
677Q655 641 731 618T831 587T897 563T962 531T1016 492T1062 440Q1101 372 1101 292Q1101 159 1000 74T770 -11T563 28T419 173L518 237Q570 156 617 129T759 101Q857 101 918 154Q969 198 969 262T947 364T884 426Q818 464 746 481T632 513T546 553T470 609Q397
680 397 784Q397 911 465 972Q528 1029 647 1061Q740 1087 760 1153Q770 1184 770 1229Q770 1312 707 1358T564 1405T437 1386T356 1329T306 1225Q275 1106 275 879V0H135Z" />
<glyph unicode="&#xe0;" glyph-name="agrave" horiz-adv-x="928" d="M366 1414L453 1501L748 1206L682 1141L366 1414ZM72 329T90 382T146 477T234 551T356 609Q489 656 681 694Q681 852 620 905Q566 952 463 952Q337 952 246 856Q207 817 192 786L97 849Q209
1064 478 1064Q719 1064 786 879Q813 804 813 697V148Q813 119 824 69T844 0H711Q681 15 681 168Q540 -13 370 -13Q182 -13 109 119Q72 186 72 257ZM229 372Q204 326 204 252T256 139T371 99T483 118T572 167Q645 222 681 265V582Q491 533 456 522Q280 465 229
372Z" />
<glyph unicode="&#xe1;" glyph-name="aacute" horiz-adv-x="928" d="M464 1206L759 1501L846 1414L530 1141L464 1206ZM72 329T90 382T146 477T234 551T356 609Q489 656 681 694Q681 852 620 905Q566 952 463 952Q337 952 246 856Q207 817 192 786L97 849Q209
1064 478 1064Q719 1064 786 879Q813 804 813 697V148Q813 119 824 69T844 0H711Q681 15 681 168Q540 -13 370 -13Q182 -13 109 119Q72 186 72 257ZM229 372Q204 326 204 252T256 139T371 99T483 118T572 167Q645 222 681 265V582Q491 533 456 522Q280 465 229
372Z" />
<glyph unicode="&#xe2;" glyph-name="acircumflex" horiz-adv-x="928" d="M256 1253L478 1475L700 1253L634 1189L478 1345L321 1188L256 1253ZM72 329T90 382T146 477T234 551T356 609Q489 656 681 694Q681 852 620 905Q566 952 463 952Q337 952 246 856Q207
817 192 786L97 849Q209 1064 478 1064Q719 1064 786 879Q813 804 813 697V148Q813 119 824 69T844 0H711Q681 15 681 168Q540 -13 370 -13Q182 -13 109 119Q72 186 72 257ZM229 372Q204 326 204 252T256 139T371 99T483 118T572 167Q645 222 681 265V582Q491 533
456 522Q280 465 229 372Z" />
<glyph unicode="&#xe3;" glyph-name="atilde" horiz-adv-x="928" d="M783 1341Q758 1269 710 1227T606 1185T510 1208T432 1253T361 1276H351Q319 1273 294 1250T257 1192L174 1232Q199 1304 244 1343Q296 1388 346 1388T431 1374T488 1343Q545 1297 596 1297H606Q638
1300 663 1323T700 1381L783 1341ZM72 329T90 382T146 477T234 551T356 609Q489 656 681 694Q681 852 620 905Q566 952 463 952Q337 952 246 856Q207 817 192 786L97 849Q209 1064 478 1064Q719 1064 786 879Q813 804 813 697V148Q813 119 824 69T844 0H711Q681
15 681 168Q540 -13 370 -13Q182 -13 109 119Q72 186 72 257ZM229 372Q204 326 204 252T256 139T371 99T483 118T572 167Q645 222 681 265V582Q491 533 456 522Q280 465 229 372Z" />
<glyph unicode="&#xe4;" glyph-name="adieresis" horiz-adv-x="928" d="M244 1188V1338H394V1188H244ZM563 1188V1338H713V1188H563ZM72 329T90 382T146 477T234 551T356 609Q489 656 681 694Q681 852 620 905Q566 952 463 952Q337 952 246 856Q207 817 192 786L97
849Q209 1064 478 1064Q719 1064 786 879Q813 804 813 697V148Q813 119 824 69T844 0H711Q681 15 681 168Q540 -13 370 -13Q182 -13 109 119Q72 186 72 257ZM229 372Q204 326 204 252T256 139T371 99T483 118T572 167Q645 222 681 265V582Q491 533 456 522Q280
465 229 372Z" />
<glyph unicode="&#xe5;" glyph-name="aring" horiz-adv-x="928" d="M205 1307T205 1413T279 1593T460 1668T640 1594T715 1413T641 1233T460 1158T280 1232ZM301 1478T301 1413T347 1302T459 1255T570 1301T617 1413T571 1524T459 1571T348 1525ZM72 329T90 382T146
477T234 551T356 609Q489 656 681 694Q681 852 620 905Q566 952 463 952Q337 952 246 856Q207 817 192 786L97 849Q209 1064 478 1064Q719 1064 786 879Q813 804 813 697V148Q813 119 824 69T844 0H711Q681 15 681 168Q540 -13 370 -13Q182 -13 109 119Q72 186
72 257ZM229 372Q204 326 204 252T256 139T371 99T483 118T572 167Q645 222 681 265V582Q491 533 456 522Q280 465 229 372Z" />
<glyph unicode="&#xe6;" glyph-name="ae" horiz-adv-x="1527" d="M72 331T90 384T146 479T234 553T356 611Q489 658 681 696Q681 854 620 907Q566 954 463 954Q337 954 246 858Q207 819 192 788L97 851Q209 1066 478 1066Q699 1066 774 909Q878 1066 1077 1066Q1261
1066 1357 914Q1443 778 1443 513H809Q809 246 944 149Q1011 101 1079 101T1195 123T1276 180Q1338 247 1356 292L1446 229Q1409 155 1345 97Q1226 -11 1097 -11T875 53T730 232Q567 -11 370 -11Q182 -11 109 121Q72 188 72 259ZM229 374Q204 328 204 254T256 141T369
101T474 117T551 156T620 208Q668 252 704 294Q678 363 678 474Q678 492 679 528T681 584Q491 535 456 524Q280 467 229 374ZM815 625H1311Q1311 774 1242 872Q1184 954 1077 954Q902 954 843 792Q815 716 815 625Z" />
<glyph unicode="&#xe7;" glyph-name="ccedilla" horiz-adv-x="926" d="M417 -314L381 -313V-219Q470 -219 499 -203T529 -172Q529 -100 458 -10Q272 3 178 128Q75 268 75 520Q75 1066 500 1066Q605 1066 677 1016Q748 966 771 926Q811 858 826 813L720 765Q718
785 699 824T657 888T594 933T500 954Q207 954 207 529Q207 323 284 212T500 101Q595 101 658 174Q713 237 732 286L741 308L845 258Q810 161 730 82Q694 47 632 18Q594 0 553 -7Q622 -105 622 -199Q622 -314 417 -314Z" />
<glyph unicode="&#xe8;" glyph-name="egrave" horiz-adv-x="925" d="M363 1414L450 1501L745 1206L679 1141L363 1414ZM126 221T101 311T75 500T89 680T126 819T182 920T250 992T326 1036Q397 1066 461 1066T570 1055T666 1008T755 914Q841 778 841 513H207Q207
246 342 149Q409 101 491 101Q645 101 753 292L844 229Q805 157 742 99Q622 -11 505 -11T306 32T175 148ZM213 625H709Q709 774 640 872Q582 954 475 954Q300 954 241 792Q213 716 213 625Z" />
<glyph unicode="&#xe9;" glyph-name="eacute" horiz-adv-x="925" d="M461 1206L756 1501L843 1414L527 1141L461 1206ZM126 221T101 311T75 500T89 680T126 819T182 920T250 992T326 1036Q397 1066 461 1066T570 1055T666 1008T755 914Q841 778 841 513H207Q207
246 342 149Q409 101 491 101Q645 101 753 292L844 229Q805 157 742 99Q622 -11 505 -11T306 32T175 148ZM213 625H709Q709 774 640 872Q582 954 475 954Q300 954 241 792Q213 716 213 625Z" />
<glyph unicode="&#xea;" glyph-name="ecircumflex" horiz-adv-x="925" d="M253 1253L475 1475L697 1253L631 1189L475 1345L318 1188L253 1253ZM126 221T101 311T75 500T89 680T126 819T182 920T250 992T326 1036Q397 1066 461 1066T570 1055T666 1008T755 914Q841
778 841 513H207Q207 246 342 149Q409 101 491 101Q645 101 753 292L844 229Q805 157 742 99Q622 -11 505 -11T306 32T175 148ZM213 625H709Q709 774 640 872Q582 954 475 954Q300 954 241 792Q213 716 213 625Z" />
<glyph unicode="&#xeb;" glyph-name="edieresis" horiz-adv-x="925" d="M240 1188V1338H390V1188H240ZM559 1188V1338H709V1188H559ZM126 221T101 311T75 500T89 680T126 819T182 920T250 992T326 1036Q397 1066 461 1066T570 1055T666 1008T755 914Q841 778 841
513H207Q207 246 342 149Q409 101 491 101Q645 101 753 292L844 229Q805 157 742 99Q622 -11 505 -11T306 32T175 148ZM213 625H709Q709 774 640 872Q582 954 475 954Q300 954 241 792Q213 716 213 625Z" />
<glyph unicode="&#xec;" glyph-name="igrave" horiz-adv-x="417" d="M-173 1414L-86 1501L209 1206L143 1141L-173 1414ZM129 0V1055H261V0H129Z" />
<glyph unicode="&#xed;" glyph-name="iacute" horiz-adv-x="417" d="M181 1206L476 1501L563 1414L247 1141L181 1206ZM129 0V1055H261V0H129Z" />
<glyph unicode="&#xee;" glyph-name="icircumflex" horiz-adv-x="417" d="M229 1253L451 1475L673 1253L607 1189L451 1345L294 1188L229 1253ZM129 0V1055H261V0H129Z" />
<glyph unicode="&#xef;" glyph-name="idieresis" horiz-adv-x="417" d="M-40 1188V1338H110V1188H-40ZM279 1188V1338H429V1188H279ZM129 0V1055H261V0H129Z" />
<glyph unicode="&#xf0;" glyph-name="eth" horiz-adv-x="981" d="M532 1515Q582 1484 657 1392L819 1486L865 1406L710 1316Q897 1015 897 527Q897 198 710 58Q616 -11 487 -11Q293 -11 184 139T75 533T183 921T487 1066Q634 1066 719 996Q640 1202 628 1224L611
1258L408 1142L362 1222L561 1336Q504 1413 450 1463T393 1515H532ZM207 528Q207 212 372 127Q422 101 487 101T602 127T683 194T732 292Q765 392 765 527Q765 954 486 954T207 528Z" />
<glyph unicode="&#xf1;" glyph-name="ntilde" horiz-adv-x="970" d="M795 1341Q770 1269 722 1227T618 1185T522 1208T444 1253T373 1276H363Q331 1273 306 1250T269 1192L186 1232Q211 1304 256 1343Q308 1388 358 1388T443 1374T500 1343Q557 1297 608 1297H618Q650
1300 675 1323T712 1381L795 1341ZM120 0V1055H252V882Q340 969 419 1017T605 1066T786 996T860 786V0H728V786Q728 861 675 907T559 954Q411 954 252 781V0H120Z" />
<glyph unicode="&#xf2;" glyph-name="ograve" horiz-adv-x="972" d="M375 1414L462 1501L757 1206L691 1141L375 1414ZM75 776T183 921T487 1066T789 920T897 530T789 137T487 -12Q290 -12 181 142Q75 293 75 534ZM207 528Q207 211 372 126Q422 100 487 100T602
126T683 193T732 292Q765 393 765 527Q765 954 486 954T207 528Z" />
<glyph unicode="&#xf3;" glyph-name="oacute" horiz-adv-x="972" d="M473 1206L768 1501L855 1414L539 1141L473 1206ZM75 776T183 921T487 1066T789 920T897 530T789 137T487 -12Q290 -12 181 142Q75 293 75 534ZM207 528Q207 211 372 126Q422 100 487 100T602
126T683 193T732 292Q765 393 765 527Q765 954 486 954T207 528Z" />
<glyph unicode="&#xf4;" glyph-name="ocircumflex" horiz-adv-x="972" d="M265 1253L487 1475L709 1253L643 1189L487 1345L330 1188L265 1253ZM75 776T183 921T487 1066T789 920T897 530T789 137T487 -12Q290 -12 181 142Q75 293 75 534ZM207 528Q207 211 372
126Q422 100 487 100T602 126T683 193T732 292Q765 393 765 527Q765 954 486 954T207 528Z" />
<glyph unicode="&#xf5;" glyph-name="otilde" horiz-adv-x="972" d="M791 1341Q766 1269 718 1227T614 1185T518 1208T440 1253T369 1276H359Q327 1273 302 1250T265 1192L182 1232Q207 1304 252 1343Q304 1388 354 1388T439 1374T496 1343Q553 1297 604 1297H614Q646
1300 671 1323T708 1381L791 1341ZM75 776T183 921T487 1066T789 920T897 530T789 137T487 -12Q290 -12 181 142Q75 293 75 534ZM207 528Q207 211 372 126Q422 100 487 100T602 126T683 193T732 292Q765 393 765 527Q765 954 486 954T207 528Z" />
<glyph unicode="&#xf6;" glyph-name="odieresis" horiz-adv-x="972" d="M252 1188V1338H402V1188H252ZM571 1188V1338H721V1188H571ZM75 776T183 921T487 1066T789 920T897 530T789 137T487 -12Q290 -12 181 142Q75 293 75 534ZM207 528Q207 211 372 126Q422 100
487 100T602 126T683 193T732 292Q765 393 765 527Q765 954 486 954T207 528Z" />
<glyph unicode="&#xf7;" glyph-name="divide" horiz-adv-x="903" d="M75 674V806H828V674H75ZM377 319V469H527V319H377ZM377 1011V1161H527V1011H377Z" />
<glyph unicode="&#xf8;" glyph-name="oslash" horiz-adv-x="972" d="M177 148Q75 296 75 536T183 921T487 1066Q594 1066 680 1018L728 1102L842 1036L782 930Q897 782 897 534T789 137T487 -12Q368 -12 274 51L224 -36L109 30L177 148ZM207 528Q207 376 248 271L623
920Q565 954 487 954Q207 954 207 528ZM332 152Q397 100 474 100T602 126T683 193T732 292Q765 393 765 551T715 815L332 152Z" />
<glyph unicode="&#xf9;" glyph-name="ugrave" horiz-adv-x="979" d="M387 1414L474 1501L769 1206L703 1141L387 1414ZM129 269V1055H261V269Q261 194 314 148T430 101Q578 101 737 274V1055H869V0H737V174Q595 35 494 4Q445 -11 392 -11Q277 -11 203 59T129 269Z" />
<glyph unicode="&#xfa;" glyph-name="uacute" horiz-adv-x="979" d="M485 1206L780 1501L867 1414L551 1141L485 1206ZM129 269V1055H261V269Q261 194 314 148T430 101Q578 101 737 274V1055H869V0H737V174Q595 35 494 4Q445 -11 392 -11Q277 -11 203 59T129 269Z" />
<glyph unicode="&#xfb;" glyph-name="ucircumflex" horiz-adv-x="979" d="M277 1253L499 1475L721 1253L655 1189L499 1345L342 1188L277 1253ZM129 269V1055H261V269Q261 194 314 148T430 101Q578 101 737 274V1055H869V0H737V174Q595 35 494 4Q445 -11 392 -11Q277
-11 203 59T129 269Z" />
<glyph unicode="&#xfc;" glyph-name="udieresis" horiz-adv-x="979" d="M264 1188V1338H414V1188H264ZM583 1188V1338H733V1188H583ZM129 269V1055H261V269Q261 194 314 148T430 101Q578 101 737 274V1055H869V0H737V174Q595 35 494 4Q445 -11 392 -11Q277 -11
203 59T129 269Z" />
<glyph unicode="&#xfd;" glyph-name="yacute" horiz-adv-x="905" d="M438 1206L733 1501L820 1414L504 1141L438 1206ZM213 -393T150 -393T27 -385L37 -264Q73 -281 133 -281T232 -266T296 -226T341 -172T374 -112Q395 -56 404 -3L25 1055H167L466 196L746 1055H880L512
-64Q455 -235 398 -296Q335 -362 274 -377Z" />
<glyph unicode="&#xfe;" glyph-name="thorn" horiz-adv-x="1015" d="M129 -410V1515H261V891Q285 936 340 981Q444 1066 557 1066Q767 1066 877 836Q940 704 940 547Q940 271 805 108Q707 -11 544 -11Q452 -11 366 44T261 140V-410H129ZM261 254Q307 188 373 145T498
101T598 112T678 154T746 234Q808 342 808 547Q808 797 692 899Q630 954 536 954Q410 954 316 848Q292 821 261 779V254Z" />
<glyph unicode="&#xff;" glyph-name="ydieresis" horiz-adv-x="905" d="M218 1449V1599H368V1449H218ZM537 1449V1599H687V1449H537ZM213 -393T150 -393T27 -385L37 -264Q73 -281 133 -281T232 -266T296 -226T341 -172T374 -112Q395 -56 404 -3L25 1055H167L466
196L746 1055H880L512 -64Q455 -235 398 -296Q335 -362 274 -377Z" />
<glyph unicode="&#x2013;" glyph-name="endash" horiz-adv-x="1024" d="M0 635H1024V523H0V635Z" />
<glyph unicode="&#x2014;" glyph-name="emdash" horiz-adv-x="2048" d="M0 635H2048V523H0V635Z" />
<glyph unicode="&#x2018;" glyph-name="quoteleft" horiz-adv-x="312" d="M70 1296V1446H220V1296H155L242 1046H198Q195 1049 146 1144T70 1296Z" />
<glyph unicode="&#x2019;" glyph-name="quoteright" horiz-adv-x="334" d="M70 1046L157 1296H92V1446H242V1296Q215 1239 166 1144T114 1046H70Z" />
<glyph unicode="&#x201a;" glyph-name="quotesinglbase" horiz-adv-x="334" d="M70 0L157 250H92V400H242V250Q215 193 166 98T114 0H70Z" />
<glyph unicode="&#x201c;" glyph-name="quotedblleft" horiz-adv-x="577" d="M70 1296V1446H220V1296H155L242 1046H198Q195 1049 146 1144T70 1296ZM335 1296V1446H485V1296H420L507 1046H463Q460 1049 411 1144T335 1296Z" />
<glyph unicode="&#x201d;" glyph-name="quotedblright" horiz-adv-x="577" d="M335 1046L422 1296H357V1446H507V1296Q480 1239 431 1144T379 1046H335ZM70 1046L157 1296H92V1446H242V1296Q215 1239 166 1144T114 1046H70Z" />
<glyph unicode="&#x201e;" glyph-name="quotedblbase" horiz-adv-x="577" d="M335 -1L422 249H357V399H507V249Q480 192 431 97T379 -1H335ZM70 -1L157 249H92V399H242V249Q215 192 166 97T114 -1H70Z" />
<glyph unicode="&#x2022;" glyph-name="bullet" horiz-adv-x="507" d="M184 513T138 562T92 675T138 788T251 836T366 787T415 675T367 563T251 513Z" />
<glyph unicode="&#x2039;" glyph-name="guilsinglleft" horiz-adv-x="1018" d="M64 744L894 1299L954 1209L232 744L954 279L894 189L64 744Z" />
<glyph unicode="&#x203a;" glyph-name="guilsinglright" horiz-adv-x="1018" d="M954 744L124 189L64 279L786 744L64 1209L124 1299L954 744Z" />
</font>
</defs>
</svg>
